kết quả từ 1 tới 2 trên 2

[Fshare 1link] Người Sói 2013 | The Wolverine (2013) | cam Xvid | Vietsub

  1. #1
    Ðến Từ
    Tỉnh Khác
    Thành Viên Thứ: 166936
    Giới tính: Nam
    Bài gửi
    9

    [Fshare 1link] Người Sói 2013 | The Wolverine (2013) | cam Xvid | Vietsub

    The Wolverine (2013)
    Người Sói
    [Hành Động | Phiêu Lưu | Viễn Tưởng]
    ( Hugh Jackman, Tao Okamoto, Rila Fukushima...)
    Điểm IMDB: 7.2/10
    Dựa trên bộ truyện tranh nổi tiếng, The Wolverine theo chân Logan, chàng chiến binh bất tử cô độc, đến Nhật Bản. Tại đây, lưỡi kiếm thép samurai sẽ **ng độ nảy lửa với bộ vuốt adamantium khi Logan đối đầu với một nhân vật bí ẩn đến từ quá khứ trong một trận chiến không khoan nhượng mà sẽ khiến anh thay đổi mãi mãi.

















    Mã:
    General
     
    Format                                  : AVI
    Format/Info                              : Audio Video Interleave
    File size                                : 1.78 GiB
    Duration                                : 1h 55mn
    Overall bit rate                        : 2 204 Kbps
    Writing application                      : VirtualDubMod 1.5.10.2 (build 2540/release)
    Writing library                          : VirtualDubMod build 2540/release
     
    Video
    ID                                      : 0
    Format                                  : MPEG-4 Visual
    Format profile                          : Advanced Simple@L5
    Format settings, BVOP                    : 2
    Format settings, QPel                    : No
    Format settings, GMC                    : No warppoints
    Format settings, Matrix                  : Default (MPEG)
    Muxing mode                              : Packed bitstream
    Codec ID                                : XVID
    Codec ID/Hint                            : XviD
    Duration                                : 1h 55mn
    Bit rate                                : 2 064 Kbps
    Width                                    : 720 pixels
    Height                                  : 384 pixels
    Display aspect ratio                    : 1.85:1
    Frame rate                              : 29.970 fps
    Color space                              : YUV
    Chroma subsampling                      : 4:2:0
    Bit depth                                : 8 bits
    Scan type                                : Progressive
    Compression mode                        : Lossy
    Bits/(Pixel*Frame)                      : 0.249
    Stream size                              : 1.67 GiB (94%)
    Writing library                          : XviD 64
     
    Audio
    ID                                      : 1
    Format                                  : MPEG Audio
    Format version                          : Version 1
    Format profile                          : Layer 3
    Mode                                    : Joint stereo
    Mode extension                          : MS Stereo
    Codec ID                                : 55
    Codec ID/Hint                            : MP3
    Duration                                : 1h 55mn
    Bit rate mode                            : Constant
    Bit rate                                : 128 Kbps
    Channel(s)                              : 2 channels
    Sampling rate                            : 48.0 KHz
    Compression mode                        : Lossy
    Stream size                              : 106 MiB (6%)
    Alignment                                : Aligned on interleaves
    Interleave, duration                    : 33 ms (1.00 video frame)
    Interleave, preload duration            : 504 ms







    ]


    fshare.vn/file/TX576R8RBT - 1.78GB - no subtile
    http://www.fshare.vn/file/TX576R8RBT
    fshare.vn/file/TK2B5K3AFT - subtile Việt
    http://www.fshare.vn/file/TK2B5K3AFT


    Quick reply to this message Trả lời       


  2. #2
    Ðến Từ
    Quảng Nam
    Thành Viên Thứ: 224390
    Giới tính: Nam
    Bài gửi
    1

    Reply: [Fshare 1link] Người Sói 2013 | The Wolverine (2013) | cam Xvid | Vietsub

    Sao xem live không được zậy AD