Siren X 2008
Yêu Nữ Bên Hồ

[Tình Cảm – Kinh dị]

(Yuma Asami, Yuria Hidaka, Yûya Matsuura,Takashi Naha...)


Điểm IMDB: 4.5/10




Câu chuyện bắt đầu xảy ra trong 1 buổi quay phim "Người lớn" ngoài trời. Trong quá trình quay phim, mấy anh chàng thấy 1 việc rất lạ. Họ bắt gặp 1 cô gái rất đẹp và quyến rũ làm mấy anh chết mê mệt. Và cô ấy muốn được thỏa mãn "vấn đề tình dục" của mình. Nhưng cuối cùng tất cả đều có 1 bi kịch thảm thương. Chi tiết thế nào mới pàkon theo dõi....
























[hide]
Mã:
General
Format                                   : MPEG-4
Format profile                           : Base Media
Codec ID                                 : isom
File size                                : 950 MiB
Duration                                 : 1h 5mn
Overall bit rate mode                    : Variable
Overall bit rate                         : 2 030 Kbps
Encoded date                             : UTC 2013-08-12 04:35:39
Tagged date                              : UTC 2013-08-12 04:35:39

Video
ID                                       : 1
Format                                   : AVC
Format/Info                              : Advanced Video Codec
Format profile                           : High@L3.1
Format settings, CABAC                   : Yes
Format settings, ReFrames                : 1 frame
Codec ID                                 : avc1
Codec ID/Info                            : Advanced Video Coding
Duration                                 : 1h 5mn
Bit rate                                 : 1 900 Kbps
Maximum bit rate                         : 8 581 Kbps
Width                                    : 608 pixels
Height                                   : 320 pixels
Display aspect ratio                     : 1.900
Frame rate mode                          : Constant
Frame rate                               : 23.976 fps
Color space                              : YUV
Chroma subsampling                       : 4:2:0
Bit depth                                : 8 bits
Scan type                                : Progressive
Bits/(Pixel*Frame)                       : 0.407
Stream size                              : 889 MiB (94%)
Writing library                          : x264 core 125 r2208 d9d2288
Encoded date                             : UTC 2013-08-12 04:35:39
Tagged date                              : UTC 2013-08-12 04:36:30

Audio
ID                                       : 2
Format                                   : AAC
Format/Info                              : Advanced Audio Codec
Format profile                           : LC
Codec ID                                 : 40
Duration                                 : 1h 5mn
Bit rate mode                            : Variable
Bit rate                                 : 128 Kbps
Maximum bit rate                         : 247 Kbps
Channel(s)                               : 2 channels
Channel positions                        : Front: L R
Sampling rate                            : 44.1 KHz
Compression mode                         : Lossy
Stream size                              : 59.9 MiB (6%)
Encoded date                             : UTC 2013-08-12 04:36:29
Tagged date                              : UTC 2013-08-12 04:36:30
[/hide]





youtube.com/watch?v=OmdxRVGREx4


]
Đăng nhập để thấy link tải bên dưới


900MB | MP4 | Hardsub Việt

http://www.fshare.vn/file/T4PGFBFFHT