[RATiNG]:…………………..[ 6.1/10 (24,612 votes)
[IMDb]:…………………..[ imdb.com/title/tt0443632/
[GENRE]:…………………..[ Action | Crime | Drama
Format : Matroska
File size : 4.37 GiB
Duration : 1h 48mn
Overall bit rate : 5 786 Kbps
Encoded date : UTC 2009-08-17 10:40:14
Writing application : mkvmerge v2.6.0 ('Kelly watch the Stars') built on Mar 24 2009 15:23:17
Writing library : libebml v0.7.7 + libmatroska v0.8.1

Video
ID : 1
Format : AVC
Format/Info : Advanced Video Codec
Format profile : High@L4.1
Format settings, CABAC : Yes
Format settings, ReFrames : 3 frames
Codec ID : V_MPEG4/ISO/AVC
Duration : 1h 48mn
Bit rate : 4 274 Kbps
Width : 1 280 pixels
Height : 534 pixels
Display aspect ratio : 2.35:1
Frame rate : 23.976 fps
Color space : YUV
Chroma subsampling : 4:2:0
Bit depth : 8 bits
Scan type : Progressive
Bits/(Pixel*Frame) : 0.261
Stream size : 3.14 GiB (72%)
Title : The.Sentinel.2006.Blu-ray.720p.DTS.x264-CHD
Writing library : x264 core 67 r1173M f6d3166
Encoding settings : cabac=1 / ref=3 / deblock=1:-3:-3 / analyse=0x3:0x113 / me=umh / subme=8 / psy_rd=1.1:0.2 / mixed_ref=1 / me_range=26 / chroma_me=1 / trellis=1 / 8x8dct=1 / cqm=2 / deadzone=6,4 / chroma_qp_offset=-6 / threads=6 / nr=0 / decimate=1 / mbaff=0 / bframes=3 / b_pyramid=1 / b_adapt=1 / b_bias=0 / direct=3 / wpredb=1 / keyint=250 / keyint_min=25 / scenecut=40 / rc=2pass / bitrate=4274 / ratetol=1.0 / qcomp=1.00 / qpmin=10 / qpmax=51 / qpstep=4 / cplxblur=20.0 / qblur=0.5 / ip_ratio=1.40 / pb_ratio=1.30 / aq=1:0.60 / zones=148800,155376,b=0.3

Audio
ID : 2
Format : DTS
Format/Info : Digital Theater Systems
Codec ID : A_DTS
Duration : 1h 48mn
Bit rate mode : Constant
Bit rate : 1 510 Kbps
Channel(s) : 6 channels
Channel positions : Front: L C R, Side: L R, LFE
Sampling rate : 48.0 KHz
Bit depth : 24 bits
Compression mode : Lossy
Stream size : 1.14 GiB (26%)
ete Garrison (Michael Douglas) là nhân viên Cục tình báo quốc gia đã hơn 20 năm. Anh luôn phải sẵn sàng lao ra đỡ hàng loạt đạn cho tổng thống nếu bất chợt có kẻ tấn công. Anh sống giữa hàng tá bản đồ quân sự, kế hoạch trinh thám, xe bọc thép hộ tống hay những mật mã, khẩu lệnh Đó là thế giới của sự im lặng và lòng tin, để rồi một khi những bí mật bị rò rỉ, cái giá phải trả sẽ không thể lường trước.
Một hôm, Charlie Merriweather (Clark Johnson), đồng nghiệp và cũng là bạn của Pete, nói bóng gió rằng, muốn tiết lộ với anh vài thông tin tối mật. Nhưng ngay sau đó, Charlie bị ám sát tại nhà riêng với hiện trường tạo dựng như một vụ cướp thông thường.
Số phận đẩy đưa để Pete Garrison cùng David Breckinridge (Kiefer Sutherland) và Jill Marin (Eva Longoria) trở thành đồng đội trong việc điều tra vụ án. Bắt tay cùng nhau, cả ba dần khám phá được âm mưu ám sát tổng thống của một nhân viên trong chính Sở nội vụ. Đó là một điều chưa từng có trong lịch sử bảo vệ an ninh và nguyên thủ quốc gia suốt 141 năm qua. Hắn là ai?
Cuối cùng, mọi nghi vấn đổ dồn về Pete Garrison và đến lúc ấy, anh mới hiểu mình đã rơi vào bẫy của tên gián điệp hai mặt. Trong tình thế vô cùng bất lợi, Pete Garrison buộc phải bỏ trốn để truy tìm kẻ phản bội thực sự, để một lần nữa mang tính mạng ra bảo vệ tổng thống, dù sau lưng mình, hai người đồng nghiệp Breckinridge và Marin đang đuổi theo ráo riết...






Download: 4 Parts 1Gb + 1 Part 374.08Mb + Sub Việt
Mã:
adf.ly/rBpv
Hướng dẫn : nhấn vào link trên, đợi 5s, rồi nhấn vào SKIP AD ở góc trên bến phải.

Source : STH