Format : MPEG-4
Format profile : Base Media / Version 2
Codec ID : mp42
File size : 79.9 MiB
Duration : 3mn 33s
Overall bit rate : 3 141 Kbps
Encoded date : UTC 2010-11-12 01:44:15
Tagged date : UTC 2010-11-12 01:44:15
gsst : 4000
gstd : 217315
gssd : BD075FCC7HH1301029906459009
gshh : r20.sjc07g04.c.youtube.com

Video
ID : 1
Format : AVC
Format/Info : Advanced Video Codec
Format profile : High@L3.1
Format settings, CABAC : Yes
Format settings, ReFrames : 1 frame
Codec ID : avc1
Codec ID/Info : Advanced Video Coding
Duration : 3mn 33s
Bit rate mode : Variable
Bit rate : 3 007 Kbps
Maximum bit rate : 4 324 Kbps
Width : 1 280 pixels
Height : 720 pixels
Display aspect ratio : 16:9
Frame rate mode : Variable
Frame rate : 29.970 fps
Minimum frame rate : 23.810 fps
Maximum frame rate : 30.303 fps
Color space : YUV
Chroma subsampling : 4:2:0
Bit depth : 8 bits
Scan type : Progressive
Bits/(Pixel*Frame) : 0.109
Stream size : 76.5 MiB (96%)
Tagged date : UTC 2010-11-12 01:44:17

Audio
ID : 2
Format : AAC
Format/Info : Advanced Audio Codec
Format profile : LC
Codec ID : 40
Duration : 3mn 33s
Bit rate mode : Variable
Bit rate : 128 Kbps
Maximum bit rate : 147 Kbps
Channel(s) : 2 channels
Channel positions : Front: L R
Sampling rate : 44.1 KHz
Compression mode : Lossy
Stream size : 3.25 MiB (4%)
Title : (C) 2007 Google Inc. v08.13.2007.
Encoded date : UTC 2010-11-12 01:44:16
Tagged date : UTC 2010-11-12 01:44:17




mediafire.com/?meni26idkvtt419 - mediafire.com/?meni26idkvtt419 - mediafire.com/?meni26idkvtt419 - mediafire.com/?meni26idkvtt419 - mediafire.com/?meni26idkvtt419 -
http://www.mediafire.com/?meni26idkvtt419

Pass unrar: truyenky.vn