Format : MPEG-4
Format profile : Base Media / Version 2
Codec ID : mp42
File size : 110 MiB
Duration : 7mn 0s
Overall bit rate : 2 195 Kbps
Encoded date : UTC 2009-10-17 00:34:06
Tagged date : UTC 2009-10-17 00:34:06
gsst : 8925
gstd : 429685
gssd : B4A7DD4A1MH1301029930266089
gshh : v1.cache6.c.youtube.com

Video
ID : 2
Format : AVC
Format/Info : Advanced Video Codec
Format profile : High@L3.1
Format settings, CABAC : Yes
Format settings, ReFrames : 3 frames
Codec ID : avc1
Codec ID/Info : Advanced Video Coding
Duration : 7mn 0s
Bit rate mode : Variable
Bit rate : 2 067 Kbps
Maximum bit rate : 5 200 Kbps
Width : 1 280 pixels
Height : 720 pixels
Display aspect ratio : 16:9
Frame rate mode : Constant
Frame rate : 23.976 fps
Color space : YUV
Chroma subsampling : 4:2:0
Bit depth : 8 bits
Scan type : Progressive
Bits/(Pixel*Frame) : 0.094
Stream size : 104 MiB (94%)
Title : (C) 2007 Google Inc. v08.13.2007.
Encoded date : UTC 2009-10-17 00:34:07
Tagged date : UTC 2009-10-17 00:34:09

Audio
ID : 1
Format : AAC
Format/Info : Advanced Audio Codec
Format profile : LC
Codec ID : 40
Duration : 7mn 0s
Bit rate mode : Variable
Bit rate : 125 Kbps
Maximum bit rate : 150 Kbps
Channel(s) : 2 channels
Channel positions : Front: L R
Sampling rate : 44.1 KHz
Compression mode : Lossy
Stream size : 6.29 MiB (6%)
Title : (C) 2007 Google Inc. v08.13.2007.
Encoded date : UTC 2009-10-17 00:34:06
Tagged date : UTC 2009-10-17 00:34:09




mediafire.com/?70psr3svoo5933d -
http://www.mediafire.com/?70psr3svoo5933d

Pass unrar: truyenky.vn