Format : AVI
Format/Info : Audio Video Interleave
File size : 142 MiB
Duration : 3mn 28s
Overall bit rate : 5 715 Kbps
Writing application : MEncoder Sherpya-SVN-r29355-4.5.0
Writing library : VirtualDub build 32661/release

Video
ID : 0
Format : MPEG-4 Visual
Format profile : Advanced Simple@L5
Format settings, BVOP : 2
Format settings, QPel : No
Format settings, GMC : No warppoints
Format settings, Matrix : Default (H.263)
Muxing mode : Packed bitstream
Codec ID : XVID
Codec ID/Hint : XviD
Duration : 3mn 28s
Bit rate : 5 584 Kbps
Width : 1 280 pixels
Height : 720 pixels
Display aspect ratio : 16:9
Frame rate : 25.000 fps
Color space : YUV
Chroma subsampling : 4:2:0
Bit depth : 8 bits
Scan type : Progressive
Compression mode : Lossy
Bits/(Pixel*Frame) : 0.242
Stream size : 139 MiB (98%)
Writing library : XviD 1.2.1 (UTC 2008-12-04)

Audio
ID : 1
Format : MPEG Audio
Format version : Version 1
Format profile : Layer 3
Mode : Joint stereo
Mode extension : MS Stereo
Codec ID : 55
Codec ID/Hint : MP3
Duration : 3mn 28s
Bit rate mode : Constant
Bit rate : 32.0 Kbps
Channel(s) : 2 channels
Sampling rate : 44.1 KHz
Compression mode : Lossy
Stream size : 2.95 MiB (2%)
Alignment : Aligned on interleaves
Interleave, duration : 26 ms (0.65 video frame)
Interleave, preload duration : 140 ms
Writing library : LAME3.98





mediafire.com/?3431w6nwnlbjbkf - mediafire.com/?3431w6nwnlbjbkf - mediafire.com/?3431w6nwnlbjbkf - mediafire.com/?3431w6nwnlbjbkf - mediafire.com/?3431w6nwnlbjbkf -
http://www.mediafire.com/?3431w6nwnlbjbkf

Pass unrar: truyenky.vn