Format : MPEG-TS
File size : 530 MiB
Duration : 3mn 55s
Overall bit rate : 18.9 Mbps

Video
ID : 17 (0x11)
Menu ID : 1 (0x1)
Format : MPEG Video
Format version : Version 2
Format profile : Main@High
Format settings, BVOP : Yes
Format settings, Matrix : Default
Format settings, GOP : M=3, N=12
Codec ID : 2
Duration : 3mn 54s
Bit rate mode : Variable
Bit rate : 17.6 Mbps
Nominal bit rate : 20.0 Mbps
Width : 1 920 pixels
Height : 1 080 pixels
Display aspect ratio : 16:9
Frame rate : 29.970 fps
Color space : YUV
Chroma subsampling : 4:2:0
Bit depth : 8 bits
Scan type : Interlaced
Scan order : Bottom Field First
Compression mode : Lossy
Bits/(Pixel*Frame) : 0.283
Stream size : 492 MiB (93%)

Audio
ID : 20 (0x14)
Menu ID : 1 (0x1)
Format : MPEG Audio
Format version : Version 1
Format profile : Layer 2
Codec ID : 3
Duration : 3mn 55s
Bit rate mode : Constant
Bit rate : 384 Kbps
Channel(s) : 2 channels
Sampling rate : 48.0 KHz
Compression mode : Lossy
Delay relative to video : -411ms
Stream size : 10.8 MiB (2%)




mediafire.com/?b6cedcr5l6l68j1 - mediafire.com/?b6cedcr5l6l68j1 - mediafire.com/?b6cedcr5l6l68j1 - mediafire.com/?b6cedcr5l6l68j1 - mediafire.com/?b6cedcr5l6l68j1 -
mediafire.com/?b6cedcr5l6l68j1
mediafire.com/?iqhz29o8zsmvi9r
mediafire.com/?977s6p2xgk43t6z
mediafire.com/?wce1zv1kubrp4wc
mediafire.com/?oni4c9o7xm7l6wc
mediafire.com/?c5tb53u0w64k17i

Pass Join: truyenky.vn