Format : MPEG-TS
File size : 346 MiB
Duration : 4mn 32s
Overall bit rate : 10.6 Mbps

Video
ID : 2362 (0x93A)
Menu ID : 1 (0x1)
Format : AVC
Format/Info : Advanced Video Codec
Format profile : Main@L4.0
Format settings, CABAC : Yes
Format settings, ReFrames : 4 frames
Format settings, GOP : M=1, N=10
Codec ID : 27
Duration : 4mn 32s
Bit rate : 9 865 Kbps
Width : 1 440 pixels
Height : 1 080 pixels
Display aspect ratio : 16:9
Frame rate : 25.000 fps
Color space : YUV
Chroma subsampling : 4:2:0
Bit depth : 8 bits
Scan type : Interlaced
Scan order : Top Field First
Bits/(Pixel*Frame) : 0.254
Stream size : 320 MiB (93%)
Color primaries : BT.709-5, BT.1361, IEC 61966-2-4, SMPTE RP177
Transfer characteristics : BT.709-5, BT.1361
Matrix coefficients : BT.709-5, BT.1361, IEC 61966-2-4 709, SMPTE RP177

Audio
ID : 2363 (0x93B)
Menu ID : 1 (0x1)
Format : AC-3
Format/Info : Audio Coding 3
Mode extension : CM (complete main)
Codec ID : 6
Duration : 4mn 32s
Bit rate mode : Constant
Bit rate : 256 Kbps
Channel(s) : 2 channels
Channel positions : Front: L R
Sampling rate : 48.0 KHz
Bit depth : 16 bits
Compression mode : Lossy
Stream size : 8.30 MiB (2%)
Language : English







mediafire.com/?5c3o17e9j8c69lm - mediafire.com/?5c3o17e9j8c69lm - mediafire.com/?5c3o17e9j8c69lm - mediafire.com/?5c3o17e9j8c69lm - mediafire.com/?5c3o17e9j8c69lm -
mediafire.com/?5c3o17e9j8c69lm
mediafire.com/?3qaeq4123t3p2p6
mediafire.com/?v8a38ua3dpf5pbo
mediafire.com/?qxzw3recpe18wmg

Pass Join: truyenky.vn