Format : Matroska
File size : 350 MiB
Duration : 4mn 36s
Overall bit rate : 10.6 Mbps
Encoded date : UTC 2011-02-14 09:59:12
Writing application : mkvmerge v4.3.0 ('Escape from the Island') 编译于 Sep 5 2010 10:30:51
Writing library : libebml v1.0.0 + libmatroska v1.0.0

Video
ID : 1
Format : AVC
Format/Info : Advanced Video Codec
Format profile : Main@L5.0
Format settings, CABAC : No
Format settings, ReFrames : 6 frames
Muxing mode : Header stripping
Codec ID : V_MPEG4/ISO/AVC
Duration : 4mn 36s
Bit rate mode : Variable
Bit rate : 9 740 Kbps
Maximum bit rate : 10.0 Mbps
Width : 1 920 pixels
Height : 1 080 pixels
Display aspect ratio : 16:9
Frame rate mode : Variable
Frame rate : 29.970 fps
Standard : Component
Color space : YUV
Chroma subsampling : 4:2:0
Bit depth : 8 bits
Scan type : Progressive
Bits/(Pixel*Frame) : 0.157
Stream size : 321 MiB (92%)

Audio
ID : 2
Format : AC-3
Format/Info : Audio Coding 3
Mode extension : CM (complete main)
Muxing mode : Header stripping
Codec ID : A_AC3
Duration : 4mn 36s
Bit rate mode : Constant
Bit rate : 640 Kbps
Channel(s) : 2 channels
Channel positions : Front: L R
Sampling rate : 48.0 KHz
Bit depth : 16 bits
Compression mode : Lossy
Stream size : 21.1 MiB (6%)
Language : Korean





mediafire.com/?c6tfwmj0jpd42fp - mediafire.com/?c6tfwmj0jpd42fp - mediafire.com/?c6tfwmj0jpd42fp - mediafire.com/?c6tfwmj0jpd42fp - mediafire.com/?c6tfwmj0jpd42fp -
mediafire.com/?c6tfwmj0jpd42fp
mediafire.com/?j3oyuf9av66a5gb
mediafire.com/?8mip4d12fz8pazl
mediafire.com/?0f6cxc82hsm2hkn

Pass Join: truyenky.vn