kết quả từ 1 tới 2 trên 2

[MV] Chế Linh- Ngưu Lan Chức Nữ- Mediafire

  1. #1
    Ðến Từ
    Tỉnh Khác
    Thành Viên Thứ: 10544
    Giới tính: Nam
    Bài gửi
    95

    [MV] Chế Linh- Ngưu Lan Chức Nữ- Mediafire








    Format : MPEG-PS
    File size : 225 MiB
    Duration : 4mn 20s
    Overall bit rate : 7 254 Kbps

    Video
    ID : 224 (0xE0)
    Format : MPEG Video
    Format version : Version 2
    Format profile : Main@Main
    Format settings, BVOP : Yes
    Format settings, Matrix : Default
    Format settings, GOP : M=3, N=15
    Duration : 4mn 20s
    Bit rate mode : Variable
    Bit rate : 6 790 Kbps
    Nominal bit rate : 8 000 Kbps
    Width : 720 pixels
    Height : 480 pixels
    Display aspect ratio : 16:9
    Frame rate : 29.970 fps
    Standard : NTSC
    Color space : YUV
    Chroma subsampling : 4:2:0
    Bit depth : 8 bits
    Scan type : Interlaced
    Scan order : Top Field First
    Compression mode : Lossy
    Bits/(Pixel*Frame) : 0.656
    Stream size : 211 MiB (93%)

    Audio
    ID : 128 (0x80)
    Format : AC-3
    Format/Info : Audio Coding 3
    Mode extension : CM (complete main)
    Duration : 4mn 20s
    Bit rate mode : Constant
    Bit rate : 320 Kbps
    Channel(s) : 2 channels
    Channel positions : Front: L R
    Sampling rate : 48.0 KHz
    Bit depth : 16 bits
    Compression mode : Lossy
    Delay relative to video : -151ms
    Stream size : 9.95 MiB (4%)





    mediafire.com/?f38rmp50pltq4 - mediafire.com/?f38rmp50pltq4 - mediafire.com/?f38rmp50pltq4 - mediafire.com/?f38rmp50pltq4 - mediafire.com/?f38rmp50pltq4 -
    http://www.mediafire.com/?f38rmp50pltq4


    Pass Join: truyenky.vn
    Quick reply to this message Trả lời       

  2. #2
    Ðến Từ
    Thành phố Bạc Liêu
    Thành Viên Thứ: 97575
    Giới tính: Nam
    Bài gửi
    160

    Ðề: [MV] Chế Linh- Ngưu Lan Chức Nữ- Mediafire

    Hay mỗi khi anh cất tiếng hát lên là lòng tôi thấy vui hơn .Cảm ơn anh đã hát những bài hay . Nhưng giọng anh hơi có chút gì đó nếu ai nghe hơi buồn ngũ

Nhãn