kết quả từ 1 tới 2 trên 2

[MF] [Video] Hạ Vy - Kiếp Đơn Nghèo

  1. #1
    Ðến Từ
    Tỉnh Khác
    Thành Viên Thứ: 10544
    Giới tính: Nam
    Bài gửi
    95

    [MF] [Video] Hạ Vy - Kiếp Đơn Nghèo





    Format : MPEG-PS
    File size : 227 MiB
    Duration : 4mn 46s
    Overall bit rate : 6 630 Kbps

    Video
    ID : 224 (0xE0)
    Format : MPEG Video
    Format version : Version 2
    Format profile : Main@Main
    Format settings, BVOP : Yes
    Format settings, Matrix : Default
    Format settings, GOP : M=3, N=15
    Duration : 4mn 46s
    Bit rate mode : Variable
    Bit rate : 6 274 Kbps
    Nominal bit rate : 8 000 Kbps
    Width : 720 pixels
    Height : 480 pixels
    Display aspect ratio : 4:3
    Frame rate : 29.970 fps
    Standard : NTSC
    Color space : YUV
    Chroma subsampling : 4:2:0
    Bit depth : 8 bits
    Scan type : Interlaced
    Scan order : Bottom Field First
    Compression mode : Lossy
    Bits/(Pixel*Frame) : 0.606
    Stream size : 214 MiB (94%)

    Audio
    ID : 128 (0x80)
    Format : AC-3
    Format/Info : Audio Coding 3
    Mode extension : CM (complete main)
    Duration : 4mn 46s
    Bit rate mode : Constant
    Bit rate : 224 Kbps
    Channel(s) : 2 channels
    Channel positions : Front: L R
    Sampling rate : 48.0 KHz
    Bit depth : 16 bits
    Compression mode : Lossy
    Delay relative to video : -117ms
    Stream size : 7.66 MiB (3%)





    mediafire.com/?4v0xbu2fbvm2v - mediafire.com/?4v0xbu2fbvm2v - mediafire.com/?4v0xbu2fbvm2v - mediafire.com/?4v0xbu2fbvm2v - mediafire.com/?4v0xbu2fbvm2v -
    http://www.mediafire.com/?4v0xbu2fbvm2v


    Pass Join:truyenky.vn
    Quick reply to this message Trả lời       

  2. Đã cảm ơn Boss Spirit:


  3. #2
    Ðến Từ
    Thành phố Bạc Liêu
    Thành Viên Thứ: 97575
    Giới tính: Nam
    Bài gửi
    160

    Ðề: [MF] [Video] Hạ Vy - Kiếp Đơn Nghèo

    Hạ Vy hát rất hay,song ca rất nhiều người như : Trường Vũ , Mạnh Đình một số người khác người ,chị cũng hát rất hay ....

Nhãn