Format : MPEG-TS
File size : 398 MiB
Duration : 3mn 4s
Overall bit rate : 18.1 Mbps

Video
ID : 33 (0x21)
Menu ID : 1 (0x1)
Format : MPEG Video
Format version : Version 2
Format profile : Main@High
Format settings, BVOP : Yes
Format settings, Matrix : Default
Codec ID : 2
Duration : 3mn 3s
Bit rate mode : Variable
Bit rate : 17.3 Mbps
Width : 1 920 pixels
Height : 1 080 pixels
Display aspect ratio : 16:9
Frame rate : 29.970 fps
Standard : Component
Color space : YUV
Chroma subsampling : 4:2:0
Bit depth : 8 bits
Scan type : Interlaced
Scan order : Top Field First
Compression mode : Lossy
Bits/(Pixel*Frame) : 0.278
Stream size : 370 MiB (93%)

Audio
ID : 36 (0x24)
Menu ID : 1 (0x1)
Format : AC-3
Format/Info : Audio Coding 3
Mode extension : CM (complete main)
Codec ID : 129
Duration : 3mn 4s
Bit rate mode : Constant
Bit rate : 384 Kbps
Channel(s) : 2 channels
Channel positions : Front: L R
Sampling rate : 48.0 KHz
Bit depth : 16 bits
Compression mode : Lossy
Stream size : 8.42 MiB (2%)
Language : English





mediafire.com/?b76buoi4xddc7 - mediafire.com/?b76buoi4xddc7 - mediafire.com/?b76buoi4xddc7 - mediafire.com/?b76buoi4xddc7 - mediafire.com/?b76buoi4xddc7 -
http://www.mediafire.com/?b76buoi4xddc7


Pass Join: truyenky.vn