Format : MPEG-TS
File size : 369 MiB
Duration : 2mn 38s
Start time : UTC 2011-03-01 13:11:34
End time : UTC 2011-03-01 13:14:14
Overall bit rate : 19.4 Mbps

Video
ID : 33 (0x21)
Menu ID : 2 (0x2)
Format : MPEG Video
Format version : Version 2
Format profile : Main@High
Format settings, BVOP : Yes
Format settings, Matrix : Default
Codec ID : 2
Duration : 2mn 39s
Bit rate mode : Constant
Bit rate : 18.0 Mbps
Width : 1 920 pixels
Height : 1 080 pixels
Display aspect ratio : 16:9
Frame rate : 29.970 fps
Standard : Component
Color space : YUV
Chroma subsampling : 4:2:0
Bit depth : 8 bits
Scan type : Interlaced
Scan order : Top Field First
Compression mode : Lossy
Bits/(Pixel*Frame) : 0.290
Stream size : 343 MiB (93%)
Language : Korean
Name : ko:Video

Audio
ID : 36 (0x24)
Menu ID : 2 (0x2)
Format : AC-3
Format/Info : Audio Coding 3
Mode extension : CM (complete main)
Codec ID : 129
Duration : 2mn 39s
Bit rate mode : Constant
Bit rate : 384 Kbps
Channel(s) : 2 channels
Channel positions : Front: L R
Sampling rate : 48.0 KHz
Bit depth : 16 bits
Compression mode : Lossy
Delay relative to video : -7ms
Stream size : 7.31 MiB (2%)
Language : Korean
Name : ko:Audio

Menu #1
ID : 32 (0x20)
Menu ID : 2 (0x2)
Duration : 2mn 38s
List : 33 (0x21) (MPEG Video, Korean) / 36 (0x24) (AC-3, Korean) / 1281 (0x501) () / 4352 (0x1100) ()
Language : Korean / Korean
Service name : KBS2 HD
Service channel number : 7-1
Service provider : KBS Digital TV
Service type : Digital television

Menu #2
ID : 48 (0x30)
Menu ID : 99 (0x63)
List : 4608 (0x1200) ()
Service name : 업그레이드
Service channel number : 7-99
Service type : reserved for future use




mediafire.com/?86vz8v2s99219 - mediafire.com/?86vz8v2s99219 - mediafire.com/?86vz8v2s99219 - mediafire.com/?86vz8v2s99219 - mediafire.com/?86vz8v2s99219

Pass Join: truyenky.vn