kết quả từ 1 tới 2 trên 2

[MF] [Video] Khánh Ly- Người thợ săn

  1. #1
    Ðến Từ
    Tỉnh Khác
    Thành Viên Thứ: 10544
    Giới tính: Nam
    Bài gửi
    95

    [MF] [Video] Khánh Ly- Người thợ săn





    Format : MPEG-PS
    File size : 240 MiB
    Duration : 4mn 11s
    Overall bit rate : 7 981 Kbps

    Video
    ID : 224 (0xE0)
    Format : MPEG Video
    Format version : Version 2
    Format profile : Main@Main
    Format settings, BVOP : Yes
    Format settings, Matrix : Default
    Format settings, GOP : M=3, N=7
    Duration : 4mn 11s
    Bit rate mode : Variable
    Bit rate : 7 500 Kbps
    Width : 720 pixels
    Height : 480 pixels
    Display aspect ratio : 4:3
    Frame rate : 29.970 fps
    Standard : NTSC
    Color space : YUV
    Chroma subsampling : 4:2:0
    Bit depth : 8 bits
    Scan type : Interlaced
    Scan order : Bottom Field First
    Compression mode : Lossy
    Bits/(Pixel*Frame) : 0.724
    Stream size : 221 MiB (92%)

    Audio
    ID : 128 (0x80)
    Format : AC-3
    Format/Info : Audio Coding 3
    Mode extension : CM (complete main)
    Duration : 4mn 11s
    Bit rate mode : Constant
    Bit rate : 448 Kbps
    Channel(s) : 2 channels
    Channel positions : Front: L R
    Sampling rate : 48.0 KHz
    Bit depth : 16 bits
    Compression mode : Lossy
    Delay relative to video : -157ms
    Stream size : 13.5 MiB (6%)





    mediafire.com/?uqwofa662u1rj - mediafire.com/?uqwofa662u1rj - mediafire.com/?uqwofa662u1rj - mediafire.com/?uqwofa662u1rj - mediafire.com/?uqwofa662u1rj -
    http://www.mediafire.com/?uqwofa662u1rj


    Pass Join: truyenky.vn
    Quick reply to this message Trả lời       

  2. #2
    Ðến Từ
    Thành phố Bạc Liêu
    Thành Viên Thứ: 97575
    Giới tính: Nam
    Bài gửi
    160

    Ðề: [MF] [Video] Khánh Ly- Người thợ săn

    Hay hay hay , không còn gì để nói khi mà khánh ly mỗi khi cất tiếng hát lên sao mà nghe hay thế

Nhãn